[ オンエアリストに戻る ]
TITLE "Heavy Metal Syndicate #1033"
FILE "2010-11-28.mp3" WAVE
  TRACK 01 AUDIO
    TITLE "AMERICAN BEAUTY"
    PERFORMER "MR. BIG : What If..."
    INDEX 01 00:00:00

  TRACK 02 AUDIO
    TITLE "UNDERTOW"
    PERFORMER "MR. BIG : What If..."
    INDEX 01 15:33:63

  TRACK 03 AUDIO
    TITLE "DARKEST HOURS"
    PERFORMER "STRATOVARIUS : Elysium"
    INDEX 01 22:19:44

  TRACK 04 AUDIO
    TITLE "FALLING TO RISE"
    PERFORMER "REVOLUTION RENAISSANCE : Trinity"
    INDEX 01 27:11:70

  TRACK 05 AUDIO
    TITLE "ALL THE GIRLS ARE CRAZY"
    PERFORMER "LEVERTY / KUNES : All the Girls Are Crazy (download single)"
    INDEX 01 33:55:01

  TRACK 06 AUDIO
    TITLE "HOUSE OF CARDS"
    PERFORMER "BUTCH WALKER AND THE BLACK WIDOWS : I Liked It Better When You Had No Heart"
    INDEX 01 38:35:49

  TRACK 07 AUDIO
    TITLE "Classic rock: SHOW ME"
    PERFORMER "FUSE : Fuse"
    INDEX 01 50:57:01


SEO [PR] おまとめローン 冷え性対策 坂本龍馬 動画掲示板 レンタルサーバー SEO