[ オンエアリストに戻る ]
TITLE "Heavy Metal Syndicate #1032"
FILE "2010-11-21.mp3" WAVE
  TRACK 01 AUDIO
    TITLE "THIS IS OUR HOUSE"
    PERFORMER "BON JOVI : Greatest Hits - The Ultimate Collection (download)"
    INDEX 01 00:00:00

  TRACK 02 AUDIO
    TITLE "SAVE YOURSELF, I'LL HOLD THEM BACK"
    PERFORMER "MY CHEMICAL ROMANCE : Danger Days - The True Lives of the Fabulous Killjoys"
    INDEX 01 13:11:12

  TRACK 03 AUDIO
    TITLE "LAST CALL FOR ALCOHOL"
    PERFORMER "HARDCORE SUPERSTAR : Split Your Lip"
    INDEX 01 18:02:50

  TRACK 04 AUDIO
    TITLE "MONTE CRISTO"
    PERFORMER "MAGIC KINGDOM : Symphony of War"
    INDEX 01 24:35:69

  TRACK 05 AUDIO
    TITLE "SEE MY COMMANDS"
    PERFORMER "GOLDEN RESURRECTION : Glory to My King"
    INDEX 01 28:24:32

  TRACK 06 AUDIO
    TITLE "BLAZE OF ASHES"
    PERFORMER "AUDREY HORNE : Audrey Horne"
    INDEX 01 34:18:51

  TRACK 07 AUDIO
    TITLE "Classic rock: START ANEW"
    PERFORMER "ETHOS : Open Up (Digitally remastered)"
    INDEX 01 51:17:20


SEO [PR] おまとめローン 冷え性対策 坂本龍馬 動画掲示板 レンタルサーバー SEO