[ オンエアリストに戻る ]
TITLE "Heavy Metal Syndicate #1031"
FILE "2010-11-14.mp3" WAVE
  TRACK 01 AUDIO
    TITLE "CELLULOID HEROES"
    PERFORMER "RAY DAVIES, JON BON JOVI & RICHIE SAMBORA : See My Friends"
    INDEX 01 00:00:00

  TRACK 02 AUDIO
    TITLE "PAID IN BLOOD"
    PERFORMER "GRAVE DIGGER : The Clans Will Rise Again"
    INDEX 01 10:47:12

  TRACK 03 AUDIO
    TITLE "TIDE OF DESIRE"
    PERFORMER "YNGWIE MALMSTEEN : Relentless"
    INDEX 01 15:29:58

  TRACK 04 AUDIO
    TITLE "ALARIC DE MARNAC"
    PERFORMER "DARK MOOR : Ancestral Romance"
    INDEX 01 22:04:45

  TRACK 05 AUDIO
    TITLE "WE STITCH THESE WOUNDS"
    PERFORMER "BLACK VEIL BRIDES : We Stitch These Wounds"
    INDEX 01 28:15:12

  TRACK 06 AUDIO
    TITLE "THIS HATE"
    PERFORMER "DEATH ANGEL : Relentless Retribution"
    INDEX 01 33:57:19

  TRACK 07 AUDIO
    TITLE "Classic rock: LADY OF MARS"
    PERFORMER "DARK STAR : Dark Star"
    INDEX 01 51:07:16


SEO [PR] おまとめローン 冷え性対策 坂本龍馬 動画掲示板 レンタルサーバー SEO