[ オンエアリストに戻る ]
TITLE "Heavy Metal Syndicate #1030"
FILE "2010-11-07.mp3" WAVE
  TRACK 01 AUDIO
    TITLE "BLINDED"
    PERFORMER "YNGWIE MALMSTEEN : Relentless"
    INDEX 01 00:00:00

  TRACK 02 AUDIO
    TITLE "SATISFACTION GUARANTEED"
    PERFORMER "PSYCHICS : Second Sight"
    INDEX 01 09:34:22

  TRACK 03 AUDIO
    TITLE "SPREAD THE ELECTRIC LUV"
    PERFORMER "ELECTRIC MARY : Down to the Bone"
    INDEX 01 13:46:15

  TRACK 04 AUDIO
    TITLE "BRIDGES AND ANCHORS"
    PERFORMER "AUDREY HORNE : Audrey Horne"
    INDEX 01 18:33:22

  TRACK 05 AUDIO
    TITLE "WHAT DID I DO"
    PERFORMER "HARDCORE SUPERSTAR : Split Your Lip"
    INDEX 01 23:49:55

  TRACK 06 AUDIO
    TITLE "THE HEAT GOES ON (Live 2009)"
    PERFORMER "ASIA : Spirit of the Night - The Phoenix Tour Live in Cambridge 2009"
    INDEX 01 30:56:43

  TRACK 07 AUDIO
    TITLE "Classic rock: WAITING FOR THE NIGHT"
    PERFORMER "VANDENBERG : Heading for a Storm (Digitally remastered)"
    INDEX 01 50:52:32


SEO [PR] おまとめローン 冷え性対策 坂本龍馬 動画掲示板 レンタルサーバー SEO