[ オンエアリストに戻る ]
TITLE "Heavy Metal Syndicate #1029"
FILE "2010-10-31.mp3" WAVE
  TRACK 01 AUDIO
    TITLE "YOU REALLY GOT ME"
    PERFORMER "RAY DAVIES & METALLICA : See My Friends"
    INDEX 01 00:00:00

  TRACK 02 AUDIO
    TITLE "GUESTLIST"
    PERFORMER "HARDCORE SUPERSTAR : Split Your Lip"
    INDEX 01 12:53:69

  TRACK 03 AUDIO
    TITLE "CALL PAUL STANLEY"
    PERFORMER "BAD CITY : Welcome to the Wasteland"
    INDEX 01 17:41:57

  TRACK 04 AUDIO
    TITLE "OUT OF THE SUN"
    PERFORMER "PSYCHICS : Second Sight"
    INDEX 01 24:05:39

  TRACK 05 AUDIO
    TITLE "TRUCE"
    PERFORMER "DEATH ANGEL : Relentless Retribution"
    INDEX 01 28:01:65

  TRACK 06 AUDIO
    TITLE "WHOLE LOTTA LOVE"
    PERFORMER "SANTANA : Guitar Heaven: The Greatest Guitar Classics of All Time (feat. Chris Cornell)"
    INDEX 01 35:55:62

  TRACK 07 AUDIO
    TITLE "Classic rock: LET IT GROW"
    PERFORMER "RENAISSANCE : Ashes Are Burning"
    INDEX 01 51:28:08


SEO [PR] おまとめローン 冷え性対策 坂本龍馬 動画掲示板 レンタルサーバー SEO