[ オンエアリストに戻る ]
TITLE "Heavy Metal Syndicate #1028"
FILE "2010-10-24.mp3" WAVE
  TRACK 01 AUDIO
    TITLE "NO APOLOGIES"
    PERFORMER "BON JOVI : Greatest Hits"
    INDEX 01 00:00:00

  TRACK 02 AUDIO
    TITLE "BABEZ FOR BREAKFAST"
    PERFORMER "LORDI : Babez for Breakfast"
    INDEX 01 09:16:26

  TRACK 03 AUDIO
    TITLE "LOOK ALIVE, SUNSHINE / NA NA NA (NA NA NA NA NA NA NA NA NA)"
    PERFORMER "MY CHEMICAL ROMANCE : Danger Days - The True Lives of the Fabulous Killjoys"
    INDEX 01 13:59:08

  TRACK 04 AUDIO
    TITLE "STRONGER"
    PERFORMER "FAITHEALER : Welcome to the Edge of the World"
    INDEX 01 20:35:72

  TRACK 05 AUDIO
    TITLE "FASTER WE FALL"
    PERFORMER "HELLOWEEN : 7 Sinners"
    INDEX 01 26:03:69

  TRACK 06 AUDIO
    TITLE "ONE FOOT IN THE GRAVE"
    PERFORMER "ELECTRIC MARY : Down to the Bone"
    INDEX 01 32:39:40

  TRACK 07 AUDIO
    TITLE "CHARON"
    PERFORMER "AUDREY HORNE : Audrey Horne"
    INDEX 01 36:31:08

  TRACK 08 AUDIO
    TITLE "Classic rock: FOR YOUR LOVE"
    PERFORMER "YARDBIRDS : For Your Love (Digitally remastered)"
    INDEX 01 53:47:19


SEO [PR] おまとめローン 冷え性対策 坂本龍馬 動画掲示板 レンタルサーバー SEO