[ オンエアリストに戻る ]
TITLE "Heavy Metal Syndicate #1027"
FILE "2010-10-17.mp3" WAVE
  TRACK 01 AUDIO
    TITLE "OVER THE EDGE"
    PERFORMER "JAMES LaBRIE : Static Impulse"
    INDEX 01 00:00:00

  TRACK 02 AUDIO
    TITLE "NO ONE DOES IT BETTER THAN ME"
    PERFORMER "ELECTRIC MARY : Down to the Bone"
    INDEX 01 11:07:41

  TRACK 03 AUDIO
    TITLE "IF I HAD A WISH"
    PERFORMER "KISKE / SOMERVILLE : Kiske / Somerville"
    INDEX 01 14:45:07

  TRACK 04 AUDIO
    TITLE "TAKE ME FOR A RIDE"
    PERFORMER "BAD CITY : Welcome to the Wasteland"
    INDEX 01 20:58:11

  TRACK 05 AUDIO
    TITLE "SADISTIC GIRLS"
    PERFORMER "HARDCORE SUPERSTAR : Split Your Lip"
    INDEX 01 25:51:09

  TRACK 06 AUDIO
    TITLE "GREAT EXPECTATIONS"
    PERFORMER "TANK : War Machine"
    INDEX 01 35:11:47

  TRACK 07 AUDIO
    TITLE "Classic rock: TOWARDS THE SKIES"
    PERFORMER "GODS : Genesis"
    INDEX 01 52:51:29


SEO [PR] おまとめローン 冷え性対策 坂本龍馬 動画掲示板 レンタルサーバー SEO