[ オンエアリストに戻る ]
TITLE "Heavy Metal Syndicate #1026"
FILE "2010-10-10.mp3" WAVE
  TRACK 01 AUDIO
    TITLE "UNDISPUTED"
    PERFORMER "HALFORD : Halford IV - Made of Metal"
    INDEX 01 00:00:00

  TRACK 02 AUDIO
    TITLE "SORRY"
    PERFORMER "ELECTRIC MARY : Down to the Bone"
    INDEX 01 12:53:57

  TRACK 03 AUDIO
    TITLE "ONE MORE TIME"
    PERFORMER "JAMES LaBRIE : Static Impulse"
    INDEX 01 16:47:30

  TRACK 04 AUDIO
    TITLE "NOTHING LEFT TO SAY"
    PERFORMER "KISKE / SOMERVILLE : Kiske / Somerville"
    INDEX 01 23:43:68

  TRACK 05 AUDIO
    TITLE "WHO IS MR. MADMAN?"
    PERFORMER "HELLOWEEN : 7 Sinners"
    INDEX 01 29:36:21

  TRACK 06 AUDIO
    TITLE "DEAD WRONG"
    PERFORMER "ALL THAT REMAINS : ...For We Are Many"
    INDEX 01 37:05:10

  TRACK 07 AUDIO
    TITLE "Classic rock: WE WILL ROCK YOU (Live 1979)"
    PERFORMER "QUEEN : Live Killers (Disc One)"
    INDEX 01 51:35:08


SEO [PR] おまとめローン 冷え性対策 坂本龍馬 動画掲示板 レンタルサーバー SEO