[ オンエアリストに戻る ]
TITLE "Heavy Metal Syndicate #1025"
FILE "2010-10-03.mp3" WAVE
  TRACK 01 AUDIO
    TITLE "THE DEPARTURE / HEADING FOR THE DAWN"
    PERFORMER "FIREWIND : Days of Defiance"
    INDEX 01 00:00:00

  TRACK 02 AUDIO
    TITLE "LOVE LIVES"
    PERFORMER "STEVEN TYLER : Love Lives (single)"
    INDEX 01 17:32:40

  TRACK 03 AUDIO
    TITLE "CELLULOID HEROES"
    PERFORMER "BLACKMORE'S NIGHT : Autumn Sky"
    INDEX 01 24:09:10

  TRACK 04 AUDIO
    TITLE "LONG LIVE THE KING"
    PERFORMER "HELLOWEEN : 7 Sinners"
    INDEX 01 31:51:20

  TRACK 05 AUDIO
    TITLE "FOR WE ARE MANY"
    PERFORMER "ALL THAT REMAINS : ...For We Are Many"
    INDEX 01 38:28:56

  TRACK 06 AUDIO
    TITLE "Classic rock: LOVE WILL LIVE"
    PERFORMER "ZENO : Zeno (Digitally remastered)"
    INDEX 01 50:32:59


SEO [PR] おまとめローン 冷え性対策 坂本龍馬 動画掲示板 レンタルサーバー SEO