[ オンエアリストに戻る ]
TITLE "Heavy Metal Syndicate #1024"
FILE "2010-09-26.mp3" WAVE
  TRACK 01 AUDIO
    TITLE "JEKYLL OR HYDE"
    PERFORMER "JAMES LaBRIE : Static Impulse"
    INDEX 01 00:00:00

  TRACK 02 AUDIO
    TITLE "FIRE AND ICE"
    PERFORMER "HALFORD : Halford IV - Made of Metal"
    INDEX 01 11:40:38

  TRACK 03 AUDIO
    TITLE "Reissue: GOD BRINGER OF DEATH"
    PERFORMER "HALFORD : Resurrection (2010 reissue)"
    INDEX 01 14:28:67

  TRACK 04 AUDIO
    TITLE "PLEASANT SURPRISE"
    PERFORMER "STEVE MORSE & SARAH SPENCER : Angelfire"
    INDEX 01 21:55:67

  TRACK 05 AUDIO
    TITLE "JOURNEYMAN"
    PERFORMER "BLACKMORE'S NIGHT : Autumn Sky"
    INDEX 01 25:42:09

  TRACK 06 AUDIO
    TITLE "HEATWAVE"
    PERFORMER "BAD CITY : Welcome to the Wasteland"
    INDEX 01 33:12:69

  TRACK 07 AUDIO
    TITLE "Classic rock: SHIPS IN THE NIGHT"
    PERFORMER "BE-BOP DELUXE : Sunburst Finish (Digitally remastered)"
    INDEX 01 52:19:39


SEO [PR] おまとめローン 冷え性対策 坂本龍馬 動画掲示板 レンタルサーバー SEO