[ オンエアリストに戻る ]
TITLE "Heavy Metal Syndicate #1023"
FILE "2010-09-19.mp3" WAVE
  TRACK 01 AUDIO
    TITLE "MADE OF METAL"
    PERFORMER "HALFORD : Halford IV - Made of Metal"
    INDEX 01 00:00:00

  TRACK 02 AUDIO
    TITLE "DO YOU BELIEVE IN ROCK N ROLL"
    PERFORMER "BAD CITY : Welcome to the Wasteland"
    INDEX 01 13:14:08

  TRACK 03 AUDIO
    TITLE "EYE FOR AN EYE"
    PERFORMER "PARASITE CITY : Minstrel's Creed"
    INDEX 01 17:51:23

  TRACK 04 AUDIO
    TITLE "MALIBU BEACH NIGHTMARE (Live 2010)"
    PERFORMER "MICHAEL MONROE : Another Night in the Sun - Live in Helsinki"
    INDEX 01 22:00:31

  TRACK 05 AUDIO
    TITLE "METAL IS FOREVER (Live 2009)"
    PERFORMER "PRIMAL FEAR : Live in the USA"
    INDEX 01 25:36:59

  TRACK 06 AUDIO
    TITLE "ONE MORE TIME"
    PERFORMER "OZZY OSBOURNE : Scream (Japan edition)"
    INDEX 01 34:49:43

  TRACK 07 AUDIO
    TITLE "Classic rock: SPACE STATION No.5"
    PERFORMER "IRON MAIDEN : Be Quick or Be Dead (single)"
    INDEX 01 52:16:16


SEO [PR] おまとめローン 冷え性対策 坂本龍馬 動画掲示板 レンタルサーバー SEO