[ オンエアリストに戻る ]
TITLE "Heavy Metal Syndicate #1022"
FILE "2010-09-12.mp3" WAVE
  TRACK 01 AUDIO
    TITLE "KEEPER OF THE FLAME"
    PERFORMER "BLACKMORE'S NIGHT : Autumn Sky"
    INDEX 01 00:00:00

  TRACK 02 AUDIO
    TITLE "UNDER THE RADAR (Live 2009)"
    PERFORMER "PRIMAL FEAR : Live in the USA"
    INDEX 01 12:07:23

  TRACK 03 AUDIO
    TITLE "DEAD, JAIL OR ROCK 'N' ROLL (Live 2010)"
    PERFORMER "MICHAEL MONROE : Another Night in the Sun - Live in Helsinki"
    INDEX 01 18:21:02

  TRACK 04 AUDIO
    TITLE "PLAY MINSTREL PLAY"
    PERFORMER "PARASITE CITY : Minstrel's Creed"
    INDEX 01 23:52:42

  TRACK 05 AUDIO
    TITLE "RAISE THE NOISE"
    PERFORMER "HELLOWEEN : Are You Metal? (EP)"
    INDEX 01 28:17:26

  TRACK 06 AUDIO
    TITLE "DIN"
    PERFORMER "THERION : Sitra Ahra"
    INDEX 01 35:09:42

  TRACK 07 AUDIO
    TITLE "Classic rock: ROCK 'N' ROLL FANTASY"
    PERFORMER "BAD COMPANY : Desolation Angels (Digitally remastered)"
    INDEX 01 51:51:01


SEO [PR] おまとめローン 冷え性対策 坂本龍馬 動画掲示板 レンタルサーバー SEO