[ オンエアリストに戻る ]
TITLE "Heavy Metal Syndicate #1021"
FILE "2010-09-05.mp3" WAVE
  TRACK 01 AUDIO
    TITLE "ARE YOU METAL?"
    PERFORMER "HELLOWEEN : Are You Metal? (EP)"
    INDEX 01 00:00:00

  TRACK 02 AUDIO
    TITLE "DOCTOR DOCTOR (Live 2010)"
    PERFORMER "MICHAEL SCHENKER GROUP : The 30th Anniversary Concert - Live in Tokyo"
    INDEX 01 08:09:39

  TRACK 03 AUDIO
    TITLE "WHAT DO YOU GOT?"
    PERFORMER "BON JOVI : Greatest Hits"
    INDEX 01 15:05:39

  TRACK 04 AUDIO
    TITLE "OUR SONG"
    PERFORMER "PARASITE CITY : Minstrel's Creed"
    INDEX 01 22:29:13

  TRACK 05 AUDIO
    TITLE "2012"
    PERFORMER "THERION : Sitra Ahra"
    INDEX 01 27:44:06

  TRACK 06 AUDIO
    TITLE "LEFT OF CENTER"
    PERFORMER "SERJ TANKIAN : Imperfect Harmonies"
    INDEX 01 34:55:45

  TRACK 07 AUDIO
    TITLE "Classic rock: GREENSLEEVES"
    PERFORMER "JEFF BECK : Truth (Digitally remastered)"
    INDEX 01 53:16:44


SEO [PR] おまとめローン 冷え性対策 坂本龍馬 動画掲示板 レンタルサーバー SEO