[ オンエアリストに戻る ]
TITLE "Heavy Metal Syndicate #1020"
FILE "2010-08-29.mp3" WAVE
  TRACK 01 AUDIO
    TITLE "ARMED AND READY (Live 2010)"
    PERFORMER "MICHAEL SCHENKER GROUP : The 30th Anniversary Concert - Live in Tokyo"
    INDEX 01 00:00:00

  TRACK 02 AUDIO
    TITLE "THE GREAT PANDEMONIUM"
    PERFORMER "KAMELOT : Poetry for the Poisoned (feat. Bjorn Strid)"
    INDEX 01 16:54:04

  TRACK 03 AUDIO
    TITLE "BEAT THE BASTARDS"
    PERFORMER "ACCEPT : Blood of the Nations"
    INDEX 01 21:27:64

  TRACK 04 AUDIO
    TITLE "INTUITION"
    PERFORMER "TONY HARNELL & THE MERCURY TRAIN : Round Trip"
    INDEX 01 27:51:56

  TRACK 05 AUDIO
    TITLE "INNOCENCE"
    PERFORMER "GRINSPOON : Six to Midnight"
    INDEX 01 32:30:59

  TRACK 06 AUDIO
    TITLE "LIGHT MY FIRE (Re-Recorded)"
    PERFORMER "AMORPHIS : Magic & Mayhem - Tales from the Early Years"
    INDEX 01 39:07:21

  TRACK 07 AUDIO
    TITLE "Classic rock: SHE'S NOT THERE '98"
    PERFORMER "COLIN BLUNSTONE : Greatest Hits / Walking in the Rain (single) (feat. Don Airey / Cozy Powell)"
    INDEX 01 51:44:55


SEO [PR] おまとめローン 冷え性対策 坂本龍馬 動画掲示板 レンタルサーバー SEO