[ オンエアリストに戻る ]
TITLE "Heavy Metal Syndicate #1019"
FILE "2010-08-22.mp3" WAVE
  TRACK 01 AUDIO
    TITLE "ONE TRACK MIND"
    PERFORMER "PAPA ROACH : Time for Annihilation - On the Record & On the Road"
    INDEX 01 00:00:00

  TRACK 02 AUDIO
    TITLE "BLACK FIRE (Live 2009)"
    PERFORMER "DRAGONFORCE : Twilight Dementia"
    INDEX 01 09:44:53

  TRACK 03 AUDIO
    TITLE "ROCK MY NIGHTS AWAY (Live 2010)"
    PERFORMER "MICHAEL SCHENKER GROUP : The 30th Anniversary Concert - Live in Tokyo"
    INDEX 01 14:32:65

  TRACK 04 AUDIO
    TITLE "ONCE UPON A TIME"
    PERFORMER "KAMELOT : Poetry for the Poisoned"
    INDEX 01 20:53:23

  TRACK 05 AUDIO
    TITLE "WE ARE FREE"
    PERFORMER "SPIRITUAL BEGGARS : Return to Zero"
    INDEX 01 26:57:19

  TRACK 06 AUDIO
    TITLE "Introduction: BLACK SABBATH (天ぷらを揚げてる音)"
    PERFORMER "BLACK SABBATH : Black Sabbath (Digitally remastered)"
    INDEX 01 38:39:24

  TRACK 07 AUDIO
    TITLE "Introduction: ANTISOCIAL"
    PERFORMER "ANTHRAX : State of Euphoria"
    INDEX 01 46:13:62

  TRACK 08 AUDIO
    TITLE "Classic rock: ANTISOCIAL (Original Version)"
    PERFORMER "TRUST : Répression"
    INDEX 01 50:53:50


SEO [PR] おまとめローン 冷え性対策 坂本龍馬 動画掲示板 レンタルサーバー SEO