[ オンエアリストに戻る ]
TITLE "Heavy Metal Syndicate #1018"
FILE "2010-08-15.mp3" WAVE
  TRACK 01 AUDIO
    TITLE "SACRED WORLDS"
    PERFORMER "BLIND GUARDIAN : At the Edge of Time"
    INDEX 01 00:00:00

  TRACK 02 AUDIO
    TITLE "WHEN YOU BELIEVE"
    PERFORMER "FIRST SIGNAL : First Signal"
    INDEX 01 17:11:63

  TRACK 03 AUDIO
    TITLE "COMEBACK"
    PERFORMER "GRINSPOON : Six to Midnight"
    INDEX 01 23:11:56

  TRACK 04 AUDIO
    TITLE "ASYLUM"
    PERFORMER "DISTURBED : Asylum"
    INDEX 01 27:25:52

  TRACK 05 AUDIO
    TITLE "THE PROMISE"
    PERFORMER "IN THIS MOMENT : A Star-Crossed Wasteland (feat. Adrian Patrick)"
    INDEX 01 33:52:55

  TRACK 06 AUDIO
    TITLE "Classic rock: SEALION"
    PERFORMER "JETHRO TULL : War Child (Digitally remastered)"
    INDEX 01 52:43:55


SEO [PR] おまとめローン 冷え性対策 坂本龍馬 動画掲示板 レンタルサーバー SEO