[ オンエアリストに戻る ]
TITLE "Heavy Metal Syndicate #1017"
FILE "2010-08-08.mp3" WAVE
  TRACK 01 AUDIO
    TITLE "BUCKET FULL OF HATE"
    PERFORMER "ACCEPT : Blood of the Nations"
    INDEX 01 00:00:00

  TRACK 02 AUDIO
    TITLE "STRIKE OF THE NINJA (Live 2009)"
    PERFORMER "DRAGONFORCE : Twilight Dementia"
    INDEX 01 11:56:38

  TRACK 03 AUDIO
    TITLE "OUT ON THE RUN (Live 2010)"
    PERFORMER "FAIR WARNING : Talking Ain't Enough - Fair Warning Live in Tokyo (CD)"
    INDEX 01 15:39:05

  TRACK 04 AUDIO
    TITLE "RIGHT NOW"
    PERFORMER "GRINSPOON : Six to Midnight"
    INDEX 01 22:01:62

  TRACK 05 AUDIO
    TITLE "THE ROAD LESS TRAVELLED"
    PERFORMER "SPIRITUAL BEGGARS : Return to Zero"
    INDEX 01 26:28:73

  TRACK 06 AUDIO
    TITLE "MY OWN WAY"
    PERFORMER "TERRA NOVA : Come Alive"
    INDEX 01 32:35:71

  TRACK 07 AUDIO
    TITLE "Classic rock: COMIN' HOME"
    PERFORMER "DEEP PURPLE : Come Taste the Band (Digitally remastered)"
    INDEX 01 52:18:44


SEO [PR] おまとめローン 冷え性対策 坂本龍馬 動画掲示板 レンタルサーバー SEO