[ オンエアリストに戻る ]
TITLE "Heavy Metal Syndicate #1016"
FILE "2010-08-01.mp3" WAVE
  TRACK 01 AUDIO
    TITLE "THE FINAL FRONTIER"
    PERFORMER "IRON MAIDEN : The Final Frontier"
    INDEX 01 00:00:00

  TRACK 02 AUDIO
    TITLE "TAKES ONE"
    PERFORMER "GRINSPOON : Six to Midnight"
    INDEX 01 15:58:11

  TRACK 03 AUDIO
    TITLE "RIDE INTO OBSESSION"
    PERFORMER "BLIND GUARDIAN : At the Edge of Time"
    INDEX 01 19:42:43

  TRACK 04 AUDIO
    TITLE "THIS CITY"
    PERFORMER "FIRST SIGNAL : First Signal"
    INDEX 01 25:16:70

  TRACK 05 AUDIO
    TITLE "DEAD"
    PERFORMER "BUCKCHERRY : All Night Long"
    INDEX 01 29:58:56

  TRACK 06 AUDIO
    TITLE "THE ROAD"
    PERFORMER "IN THIS MOMENT : A Star-Crossed Wasteland (feat. Gus G.)"
    INDEX 01 35:41:38

  TRACK 07 AUDIO
    TITLE "Classic rock: SUMMERTIME"
    PERFORMER "BIG BROTHER & THE HOLDING COMPANY : Cheap Thrills"
    INDEX 01 51:58:37


SEO [PR] おまとめローン 冷え性対策 坂本龍馬 動画掲示板 レンタルサーバー SEO