[ オンエアリストに戻る ]
TITLE "Heavy Metal Syndicate #1015"
FILE "2010-07-25.mp3" WAVE
  TRACK 01 AUDIO
    TITLE "BLACK SUNDAY"
    PERFORMER "BLACK LABEL SOCIETY : Order of the Black"
    INDEX 01 00:00:00

  TRACK 02 AUDIO
    TITLE "PANDEMIC"
    PERFORMER "ACCEPT : Blood of the Nations"
    INDEX 01 07:37:17

  TRACK 03 AUDIO
    TITLE "WELCOME TO THE FAMILY"
    PERFORMER "AVENGED SEVENFOLD : Nightmare"
    INDEX 01 14:31:42

  TRACK 04 AUDIO
    TITLE "RUN"
    PERFORMER "GRINSPOON : Six to Midnight"
    INDEX 01 21:58:68

  TRACK 05 AUDIO
    TITLE "THOSE EYES"
    PERFORMER "TERRA NOVA : Come Alive"
    INDEX 01 25:36:09

  TRACK 06 AUDIO
    TITLE "AWAKE FROM DARKNESS"
    PERFORMER "ANGRA : Aqua"
    INDEX 01 32:04:64

  TRACK 07 AUDIO
    TITLE "STAR BORN"
    PERFORMER "SPIRITUAL BEGGARS : Return to Zero"
    INDEX 01 37:13:59

  TRACK 08 AUDIO
    TITLE "Classic rock: OCTOPUS"
    PERFORMER "SYD BARRETT : The Madcap Laughs"
    INDEX 01 52:29:56


SEO [PR] おまとめローン 冷え性対策 坂本龍馬 動画掲示板 レンタルサーバー SEO