[ オンエアリストに戻る ]
TITLE "Heavy Metal Syndicate #1014"
FILE "2010-07-18.mp3" WAVE
  TRACK 01 AUDIO
    TITLE "LOCKED AND LOADED"
    PERFORMER "ACCEPT : Blood of the Nations"
    INDEX 01 00:00:00

  TRACK 02 AUDIO
    TITLE "TANELORN (INTO THE VOID)"
    PERFORMER "BLIND GUARDIAN : At the Edge of Time"
    INDEX 01 11:34:56

  TRACK 03 AUDIO
    TITLE "RECOVERY"
    PERFORMER "BUCKCHERRY : All Night Long"
    INDEX 01 18:44:09

  TRACK 04 AUDIO
    TITLE "OUT OF THE RUINS"
    PERFORMER "FREEDOM CALL : Legend of the Shadowking"
    INDEX 01 23:34:74

  TRACK 05 AUDIO
    TITLE "DER EWIGE SIEG"
    PERFORMER "EQUILIBRIUM : Rekreatur"
    INDEX 01 29:38:69

  TRACK 06 AUDIO
    TITLE "COMING HOME"
    PERFORMER "SPIRITUAL BEGGARS : Return to Zero"
    INDEX 01 36:17:34

  TRACK 07 AUDIO
    TITLE "Classic rock: WORKING FOR THE WEEKEND"
    PERFORMER "LOVERBOY : Get Lucky"
    INDEX 01 52:31:58


SEO [PR] おまとめローン 冷え性対策 坂本龍馬 動画掲示板 レンタルサーバー SEO