[ オンエアリストに戻る ]
TITLE "Heavy Metal Syndicate #1013"
FILE "2010-07-11.mp3" WAVE
  TRACK 01 AUDIO
    TITLE "VIDERUNT TE AQUÆ / ARISING THUNDER"
    PERFORMER "ANGRA : Aqua"
    INDEX 01 00:00:00

  TRACK 02 AUDIO
    TITLE "COWBOY WAY"
    PERFORMER "HELLYEAH : Stampede"
    INDEX 01 11:52:06

  TRACK 03 AUDIO
    TITLE "UNDER PRESSURE"
    PERFORMER "TERRA NOVA : Come Alive"
    INDEX 01 16:03:59

  TRACK 04 AUDIO
    TITLE "GOOD RIDDANCE"
    PERFORMER "EXODUS : Exhibit B: The Human Condition"
    INDEX 01 22:58:06

  TRACK 05 AUDIO
    TITLE "Reissue: MINDBENDER"
    PERFORMER "BIGELF : Money Machine (Released 2000)"
    INDEX 01 29:47:04

  TRACK 06 AUDIO
    TITLE "CRYSTAL SHIP"
    PERFORMER "NEVERMORE : The Obsidian Conspiracy"
    INDEX 01 35:18:32

  TRACK 07 AUDIO
    TITLE "Classic rock: THE CRYSTAL SHIP"
    PERFORMER "DOORS : The Doors (Digitally remastered)"
    INDEX 01 51:24:66


SEO [PR] おまとめローン 冷え性対策 坂本龍馬 動画掲示板 レンタルサーバー SEO