[ オンエアリストに戻る ]
TITLE "Heavy Metal Syndicate #1012"
FILE "2010-07-04.mp3" WAVE
  TRACK 01 AUDIO
    TITLE "COME ALIVE"
    PERFORMER "TERRA NOVA : Come Alive"
    INDEX 01 00:00:00

  TRACK 02 AUDIO
    TITLE "PARADE OF THE DEAD"
    PERFORMER "BLACK LABEL SOCIETY : Order of the Black"
    INDEX 01 13:35:37

  TRACK 03 AUDIO
    TITLE "SUPERSONIC KILLER"
    PERFORMER "KISSIN' DYNAMITE : Addicted to Metal"
    INDEX 01 17:58:08

  TRACK 04 AUDIO
    TITLE "FEEL MY HEAT"
    PERFORMER "RECKLESS LOVE : Reckless Love"
    INDEX 01 23:23:65

  TRACK 05 AUDIO
    TITLE "Reissue: SALVATION"
    PERFORMER "BIGELF : Closer to Doom (EP) (Released 1996)"
    INDEX 01 27:57:11

  TRACK 06 AUDIO
    TITLE "THE TERMINATION PROCLAMATION"
    PERFORMER "NEVERMORE : The Obsidian Conspiracy"
    INDEX 01 33:02:56

  TRACK 07 AUDIO
    TITLE "Classic rock: EASY STREET"
    PERFORMER "SPY : Spy"
    INDEX 01 51:24:02


SEO [PR] おまとめローン 冷え性対策 坂本龍馬 動画掲示板 レンタルサーバー SEO