[ オンエアリストに戻る ]
TITLE "Heavy Metal Syndicate #1011"
FILE "2010-06-27.mp3" WAVE
  TRACK 01 AUDIO
    TITLE "A VOICE IN THE DARK"
    PERFORMER "BLIND GUARDIAN : At the Edge of Time"
    INDEX 01 00:00:00

  TRACK 02 AUDIO
    TITLE "Reissue: MADHATTER"
    PERFORMER "BIGELF : Hex (Released 2003)"
    INDEX 01 15:18:41

  TRACK 03 AUDIO
    TITLE "BATTER UP"
    PERFORMER "PAUL GILBERT : Fuzz Universe"
    INDEX 01 20:18:44

  TRACK 04 AUDIO
    TITLE "ADDICTED TO METAL"
    PERFORMER "KISSIN' DYNAMITE : Addicted to Metal (feat. Udo Dirkschneider)"
    INDEX 01 25:42:21

  TRACK 05 AUDIO
    TITLE "FOR CRYING OUT LOUD"
    PERFORMER "FIREBIRD : Double Diamond"
    INDEX 01 29:59:46

  TRACK 06 AUDIO
    TITLE "BURN, HOLLYWOOD, BURN"
    PERFORMER "EXODUS : Exhibit B: The Human Condition"
    INDEX 01 34:19:43

  TRACK 07 AUDIO
    TITLE "Classic rock: WINTERTIME"
    PERFORMER "KAYAK : Kayak II"
    INDEX 01 52:20:55


SEO [PR] おまとめローン 冷え性対策 坂本龍馬 動画掲示板 レンタルサーバー SEO