[ オンエアリストに戻る ]
TITLE "Heavy Metal Syndicate #1010"
FILE "2010-06-20.mp3" WAVE
  TRACK 01 AUDIO
    TITLE "EL DORADO"
    PERFORMER "IRON MAIDEN : The Final Frontier"
    INDEX 01 00:00:00

  TRACK 02 AUDIO
    TITLE "FEARLESS"
    PERFORMER "OZZY OSBOURNE : Scream"
    INDEX 01 13:52:47

  TRACK 03 AUDIO
    TITLE "BACH PARTITA in Dm"
    PERFORMER "PAUL GILBERT : Fuzz Universe"
    INDEX 01 19:57:20

  TRACK 04 AUDIO
    TITLE "HAMMER AND LIFE"
    PERFORMER "EXODUS : Exhibit B: The Human Condition"
    INDEX 01 24:46:22

  TRACK 05 AUDIO
    TITLE "DELIVERANCE IS MINE"
    PERFORMER "SOILWORK : The Panic Broadcast"
    INDEX 01 28:44:37

  TRACK 06 AUDIO
    TITLE "ANOTHER WAY TO DIE"
    PERFORMER "DISTURBED : Asylum"
    INDEX 01 34:55:16

  TRACK 07 AUDIO
    TITLE "Classic rock: ONLY MY SOUL"
    PERFORMER "DAVID COVERDALE : Northwinds (Digitally remastered)"
    INDEX 01 51:25:03


SEO [PR] おまとめローン 冷え性対策 坂本龍馬 動画掲示板 レンタルサーバー SEO