[ オンエアリストに戻る ]
TITLE "Heavy Metal Syndicate #1009"
FILE "2010-06-13.mp3" WAVE
  TRACK 01 AUDIO
    TITLE "ALL NIGHT LONG"
    PERFORMER "BUCKCHERRY : All Night Long"
    INDEX 01 00:00:00

  TRACK 02 AUDIO
    TITLE "CIELO DRIVE"
    PERFORMER "PRETTY MAIDS : Pandemonium"
    INDEX 01 09:07:35

  TRACK 03 AUDIO
    TITLE "BU2B"
    PERFORMER "RUSH : Caravan (Download single)"
    INDEX 01 14:56:34

  TRACK 04 AUDIO
    TITLE "LETHAL AWAKENING"
    PERFORMER "SHAMAN : Origins"
    INDEX 01 21:21:30

  TRACK 05 AUDIO
    TITLE "RUINED"
    PERFORMER "FIREBIRD : Double Diamond"
    INDEX 01 26:41:32

  TRACK 06 AUDIO
    TITLE "TAP OUT"
    PERFORMER "SAVING ABEL : Miss America"
    INDEX 01 32:25:20

  TRACK 07 AUDIO
    TITLE "Introduction: LOUIE LOUIE"
    PERFORMER "KINGSMEN : The Kingsmen in Person"
    INDEX 01 47:14:01

  TRACK 08 AUDIO
    TITLE "Classic rock: LOUIE LOUIE"
    PERFORMER "MOTORHEAD : Louie Louie (single)"
    INDEX 01 53:05:17


SEO [PR] おまとめローン 冷え性対策 坂本龍馬 動画掲示板 レンタルサーバー SEO