[ オンエアリストに戻る ]
TITLE "Heavy Metal Syndicate #1008"
FILE "2010-06-06.mp3" WAVE
  TRACK 01 AUDIO
    TITLE "PRELUDE, ON WITH THE SHOW"
    PERFORMER "Y&T : Facemelter"
    INDEX 01 00:00:00

  TRACK 02 AUDIO
    TITLE "BLIND PATRIOT"
    PERFORMER "Y&T : Facemelter"
    INDEX 01 01:37:19

  TRACK 03 AUDIO
    TITLE "Reissue: RUNAWAY (Live 1984)"
    PERFORMER "BON JOVI : Access All Areas - Special Edition Collector's Box / Bon Jovi (Special edition)"
    INDEX 01 14:21:47

  TRACK 04 AUDIO
    TITLE "Reissue: BORN TO BE MY BABY (Live 1988)"
    PERFORMER "BON JOVI : Access All Areas - Special Edition Collector's Box / New Jersey (Special edition)"
    INDEX 01 19:27:31

  TRACK 05 AUDIO
    TITLE "LATE FOR THE KILL, EARLY FOR THE SLAUGHTER"
    PERFORMER "SOILWORK : The Panic Broadcast"
    INDEX 01 26:44:47

  TRACK 06 AUDIO
    TITLE "58"
    PERFORMER " : Purplessence"
    INDEX 01 31:43:00

  TRACK 07 AUDIO
    TITLE "THROWING STONES"
    PERFORMER "IMPERIAL STATE ELECTRIC : Imperial State Electric"
    INDEX 01 39:10:03

  TRACK 08 AUDIO
    TITLE "Classic rock: HONKY TONK TRAIN BLUES"
    PERFORMER "EMERSON, LAKE & PALMER : Works - Volume 2 (Digitally remastered)"
    INDEX 01 53:05:39


SEO [PR] おまとめローン 冷え性対策 坂本龍馬 動画掲示板 レンタルサーバー SEO