[ オンエアリストに戻る ]
TITLE "Heavy Metal Syndicate #1007"
FILE "2010-05-30.mp3" WAVE
  TRACK 01 AUDIO
    TITLE "Reissue: SUPERMAN TONIGHT (Live 2010)"
    PERFORMER "BON JOVI : Access All Areas - Special Edition Collector's Box / The Circle (Special edition)"
    INDEX 01 00:00:00

  TRACK 02 AUDIO
    TITLE "AC/DC"
    PERFORMER "VINCE NEIL : Tattoos & Tequila"
    INDEX 01 18:41:52

  TRACK 03 AUDIO
    TITLE "A CHANCE"
    PERFORMER "LABYRINTH : Return to Heaven Denied Pt. II - A Midnight Autumn's Dream"
    INDEX 01 23:50:74

  TRACK 04 AUDIO
    TITLE "ONE WORLD ONE TRUTH"
    PERFORMER "PRETTY MAIDS : Pandemonium"
    INDEX 01 29:23:60

  TRACK 05 AUDIO
    TITLE "WITCHKRIEG"
    PERFORMER "WITCHERY : Witchkrieg (feat. Kerry King)"
    INDEX 01 36:04:26

  TRACK 06 AUDIO
    TITLE "Classic rock: MOUTH FOR WAR"
    PERFORMER "PANTERA : Vulgar Display of Power"
    INDEX 01 51:08:12


SEO [PR] おまとめローン 冷え性対策 坂本龍馬 動画掲示板 レンタルサーバー SEO