[ オンエアリストに戻る ]
TITLE "Heavy Metal Syndicate #1006"
FILE "2010-05-23.mp3" WAVE
  TRACK 01 AUDIO
    TITLE "PANDEMONIUM"
    PERFORMER "PRETTY MAIDS : Pandemonium"
    INDEX 01 00:00:00

  TRACK 02 AUDIO
    TITLE "DEADLY DECEIVER"
    PERFORMER "Y&T : Facemelter"
    INDEX 01 12:50:64

  TRACK 03 AUDIO
    TITLE "NIGHTMARE"
    PERFORMER "AVENGED SEVENFOLD : Nightmare"
    INDEX 01 17:47:57

  TRACK 04 AUDIO
    TITLE "SINCE YOU'VE BEEN GONE"
    PERFORMER "NEGATIVE : Neon"
    INDEX 01 24:48:61

  TRACK 05 AUDIO
    TITLE "ANOTHER BAD DAY"
    PERFORMER "VINCE NEIL : Tattoos & Tequila"
    INDEX 01 29:48:72

  TRACK 06 AUDIO
    TITLE "TWO LIVES WORTH OF RECKONING"
    PERFORMER "SOILWORK : The Panic Broadcast"
    INDEX 01 35:35:67

  TRACK 07 AUDIO
    TITLE "ALL OUR DREAMS"
    PERFORMER " : Purplessence"
    INDEX 01 48:18:30


SEO [PR] おまとめローン 冷え性対策 坂本龍馬 動画掲示板 レンタルサーバー SEO