[ オンエアリストに戻る ]
TITLE "Heavy Metal Syndicate #1005"
FILE "2010-05-16.mp3" WAVE
  TRACK 01 AUDIO
    TITLE "I'M ON FIRE!"
    PERFORMER " : Purplessence"
    INDEX 01 00:00:00

  TRACK 02 AUDIO
    TITLE "ONE MORE TIME"
    PERFORMER "RECKLESS LOVE : Reckless Love"
    INDEX 01 11:56:59

  TRACK 03 AUDIO
    TITLE "NO ONE CAN SAVE ME TONIGHT"
    PERFORMER "NEGATIVE : Neon"
    INDEX 01 16:35:22

  TRACK 04 AUDIO
    TITLE "LIVING AFTER MIDNIGHT (Live 2009)"
    PERFORMER "JUDAS PRIEST : British Steel - 30th anniversary edition"
    INDEX 01 22:11:08

  TRACK 05 AUDIO
    TITLE "40 DEUCES"
    PERFORMER "WHITE WIZZARD : Over the Top"
    INDEX 01 28:54:35

  TRACK 06 AUDIO
    TITLE "PAINTING IN THE DARK"
    PERFORMER "CATHEDRAL : The Guessing Game"
    INDEX 01 35:25:53

  TRACK 07 AUDIO
    TITLE "Classic rock: SOMETHIN' ELSE"
    PERFORMER "UFO : Mechanix (Digitally remastered)"
    INDEX 01 50:55:10


SEO [PR] おまとめローン 冷え性対策 坂本龍馬 動画掲示板 レンタルサーバー SEO