[ オンエアリストに戻る ]
TITLE "Heavy Metal Syndicate #1004"
FILE "2010-05-09.mp3" WAVE
  TRACK 01 AUDIO
    TITLE "INTO THE SUN"
    PERFORMER " : Purplessence"
    INDEX 01 00:00:00

  TRACK 02 AUDIO
    TITLE "BREAKING THE LAW (Live 2009)"
    PERFORMER "JUDAS PRIEST : British Steel - 30th anniversary edition"
    INDEX 01 13:51:29

  TRACK 03 AUDIO
    TITLE "THE WAR IS OVER"
    PERFORMER "TREAT : Coup de Grace"
    INDEX 01 18:55:00

  TRACK 04 AUDIO
    TITLE "FAR FROM THE END OF THE WORLD"
    PERFORMER "MASTERPLAN : Time to Be King"
    INDEX 01 24:38:59

  TRACK 05 AUDIO
    TITLE "STUPID GIRL (ONLY IN HOLLYWOOD)"
    PERFORMER "SAVING ABEL : Miss America"
    INDEX 01 29:32:25

  TRACK 06 AUDIO
    TITLE "BACK TO PARADISE"
    PERFORMER "RECKLESS LOVE : Reckless Love"
    INDEX 01 35:11:01

  TRACK 07 AUDIO
    TITLE "Classic rock: TURN THE TABLES"
    PERFORMER "PRAYING MANTIS : Turn the Tables (single)"
    INDEX 01 50:37:31


SEO [PR] おまとめローン 冷え性対策 坂本龍馬 動画掲示板 レンタルサーバー SEO