[ オンエアリストに戻る ]
TITLE "Heavy Metal Syndicate #1003"
FILE "2010-05-02.mp3" WAVE
  TRACK 01 AUDIO
    TITLE "FREEWHEEL BURNING (Live 2009)"
    PERFORMER "JUDAS PRIEST : British Steel - 30th anniversary edition"
    INDEX 01 00:00:00

  TRACK 02 AUDIO
    TITLE "FIDDLE OF TIME"
    PERFORMER "MASTERPLAN : Time to Be King"
    INDEX 01 11:00:42

  TRACK 03 AUDIO
    TITLE "AMBUSH"
    PERFORMER "ANNIHILATOR : Annihilator"
    INDEX 01 15:51:63

  TRACK 04 AUDIO
    TITLE "Reissue: FOREVER ROLLING ON"
    PERFORMER "BILL LEVERTY : Wanderlust (released 2004)"
    INDEX 01 22:17:37

  TRACK 05 AUDIO
    TITLE "THE CASKET CHASERS"
    PERFORMER "CATHEDRAL : The Guessing Game"
    INDEX 01 28:56:31

  TRACK 06 AUDIO
    TITLE "Introduction: CANON IN D MAJOR"
    PERFORMER "Composed by JOHANN PACHELBEL : Canon and Gigue in D (Composed in about 1680)"
    INDEX 01 42:04:27

  TRACK 07 AUDIO
    TITLE "Introduction: RAIN AND TEARS"
    PERFORMER "APHRODITE'S CHILD : End of the World (Digitally remastered)"
    INDEX 01 46:29:42

  TRACK 08 AUDIO
    TITLE "Classic rock: "
    PERFORMER "APHRODITE'S CHILD : 666 (Digitally remastered)"
    INDEX 01 49:29:07


SEO [PR] おまとめローン 冷え性対策 坂本龍馬 動画掲示板 レンタルサーバー SEO