[ オンエアリストに戻る ]
TITLE "Heavy Metal Syndicate #1002"
FILE "2010-04-25.mp3" WAVE
  TRACK 01 AUDIO
    TITLE "LET ME HEAR YOU SCREAM"
    PERFORMER "OZZY OSBOURNE : Scream"
    INDEX 01 00:00:00

  TRACK 02 AUDIO
    TITLE "TATTOOS & TEQUILA"
    PERFORMER "VINCE NEIL : Tattoos & Tequila"
    INDEX 01 16:58:28

  TRACK 03 AUDIO
    TITLE "RAGING STARFIRE"
    PERFORMER "RHAPSODY OF FIRE : The Frozen Tears of Angels"
    INDEX 01 21:21:39

  TRACK 04 AUDIO
    TITLE "CONSPIRACY THEORY"
    PERFORMER "ANGELS OF BABYLON : Kingdom of Evil"
    INDEX 01 28:39:17

  TRACK 05 AUDIO
    TITLE "KILIMANJARO"
    PERFORMER "CHRISTOPHER AMOTT : Follow Your Heart"
    INDEX 01 34:52:32

  TRACK 06 AUDIO
    TITLE "Classic rock: GLORY"
    PERFORMER "DIZZY MIZZ LIZZY : Dizzy Mizz Lizzy"
    INDEX 01 52:29:27


SEO [PR] おまとめローン 冷え性対策 坂本龍馬 動画掲示板 レンタルサーバー SEO