[ オンエアリストに戻る ]
TITLE "Heavy Metal Syndicate #1001"
FILE "2010-04-18.mp3" WAVE
  TRACK 01 AUDIO
    TITLE "THE LAST FIGHT"
    PERFORMER "BULLET FOR MY VALENTINE : Fever"
    INDEX 01 00:00:00

  TRACK 02 AUDIO
    TITLE "GOT MY EYES ON YOU"
    PERFORMER "JOHN NORUM : Play Yard Blues"
    INDEX 01 10:06:51

  TRACK 03 AUDIO
    TITLE "CAST AWAY"
    PERFORMER "H.E.A.T : Freedom Rock"
    INDEX 01 14:28:18

  TRACK 04 AUDIO
    TITLE "Introduction: BUS STOP"
    PERFORMER "HOLLIES : Bus Stop (single) (Digitally remastered)"
    INDEX 01 18:52:12

  TRACK 05 AUDIO
    TITLE "BUS STOP"
    PERFORMER "DOKKEN : Greatest Hits"
    INDEX 01 22:47:53

  TRACK 06 AUDIO
    TITLE "ROCKET SKATES"
    PERFORMER "DEFTONES : Diamond Eyes"
    INDEX 01 28:31:60

  TRACK 07 AUDIO
    TITLE "Classic rock: KNOCK YOU OUT"
    PERFORMER "Y&T : Earthshaker (Digitally remastered)"
    INDEX 01 53:06:26


SEO [PR] おまとめローン 冷え性対策 坂本龍馬 動画掲示板 レンタルサーバー SEO