[ オンエアリストに戻る ]
TITLE "Heavy Metal Syndicate #1000"
FILE "2010-04-11.mp3" WAVE
  TRACK 01 AUDIO
    TITLE "Congratulations from Whitesnake"
    PERFORMER "David Coverdale"
    INDEX 01 00:00:00
  TRACK 02 AUDIO
    TITLE "Congratulations from Jon Bon Jovi"
    PERFORMER "Jon Bon Jovi"
    INDEX 01 00:10:07
  TRACK 03 AUDIO
    TITLE "Congratulations from Iron Maiden"
    PERFORMER "Steve Harris"
    INDEX 01 00:18:50
  TRACK 04 AUDIO
    TITLE "Congratulations from Judas Priest"
    PERFORMER "Rob Halford / Glenn Tipton / K.K. Downing"
    INDEX 01 00:35:10
  TRACK 05 AUDIO
    TITLE "Congratulations from Megadeth"
    PERFORMER "Dave Mustaine"
    INDEX 01 00:47:56
  TRACK 06 AUDIO
    TITLE "Congratulations from Joe Lynn Turner"
    PERFORMER "Joe Lynn Turner"
    INDEX 01 00:59:54


  TRACK 07 AUDIO
    TITLE "FIGHTING YOURSELF"
    PERFORMER "TERRA NOVA : Come Alive"
    INDEX 01 05:03:26


  TRACK 08 AUDIO
    TITLE "Congratulations from Sebastian Bach"
    PERFORMER "Sebastian Bach"
    INDEX 01 08:46:51
  TRACK 09 AUDIO
    TITLE "Congratulations from Joe Perry"
    PERFORMER "Joe Perry"
    INDEX 01 08:56:04
  TRACK 10 AUDIO
    TITLE "Congratulations from Don Dokken"
    PERFORMER "Don Dokken"
    INDEX 01 09:09:68
  TRACK 11 AUDIO
    TITLE "Congratulations from In Flames"
    PERFORMER "Bjorn Gelotte"
    INDEX 01 09:21:08
  TRACK 12 AUDIO
    TITLE "Congratulations from Slayer"
    PERFORMER "Dave Lombardo"
    INDEX 01 09:29:62
  TRACK 13 AUDIO
    TITLE "Congratulations from Fair Warning"
    PERFORMER "Tommy Heart"
    INDEX 01 09:36:64


  TRACK 14 AUDIO
    TITLE "DECADENCE DANCE (Live 2009)"
    PERFORMER "EXTREME : Take Us Alive"
    INDEX 01 11:10:55


  TRACK 15 AUDIO
    TITLE "Congratulations from Riot"
    PERFORMER "Mark Reale"
    INDEX 01 17:48:18
  TRACK 16 AUDIO
    TITLE "Congratulations from Raven"
    PERFORMER "John Gallagher / Mark Gallagher / Joe Hasselvander"
    INDEX 01 17:56:22
  TRACK 17 AUDIO
    TITLE "Congratulations from Royal Hunt"
    PERFORMER "Andre Andersen / Markus Jidell"
    INDEX 01 18:08:66
  TRACK 18 AUDIO
    TITLE "Congratulations from Bigelf"
    PERFORMER "Damon Fox"
    INDEX 01 18:27:39
  TRACK 19 AUDIO
    TITLE "Congratulations from Fair Warning"
    PERFORMER "Helge Engelke"
    INDEX 01 18:36:05
  TRACK 20 AUDIO
    TITLE "Congratulations from Anthrax"
    PERFORMER "Charlie Benante"
    INDEX 01 18:49:53


  TRACK 21 AUDIO
    TITLE "DANGER ROAD"
    PERFORMER "H.E.A.T : Freedom Rock"
    INDEX 01 21:32:02


  TRACK 22 AUDIO
    TITLE "Congratulations from Iron Maiden"
    PERFORMER "Bruce Dickinson"
    INDEX 01 24:27:14
  TRACK 23 AUDIO
    TITLE "Congratulations from Arch Enemy"
    PERFORMER "Michael Amott"
    INDEX 01 24:50:42
  TRACK 24 AUDIO
    TITLE "Congratulations from 3 Inches of Blood"
    PERFORMER "Shane Clark / Justin Hagberg / Cam Pipes / Ash Pearson"
    INDEX 01 25:01:65
  TRACK 25 AUDIO
    TITLE "Congratulations from Zeno Roth"
    PERFORMER "Zeno Roth"
    INDEX 01 25:17:09
  TRACK 26 AUDIO
    TITLE "Congratulations from Praying Mantis"
    PERFORMER "Tino Troy / Chris Troy / Mike Freeland / Benjy Reid / Andy Burgess"
    INDEX 01 25:27:43
  TRACK 27 AUDIO
    TITLE "Congratulations from Black Label Society"
    PERFORMER "Zakk Wylde"
    INDEX 01 25:46:30
  TRACK 28 AUDIO
    TITLE "Congratulations from George Lynch"
    PERFORMER "George Lynch"
    INDEX 01 25:52:43


  TRACK 29 AUDIO
    TITLE "RACE WITH TIME"
    PERFORMER "BIGELF : Cheat the Gallows"
    INDEX 01 27:57:29


  TRACK 30 AUDIO
    TITLE "Congratulations from Gotthard"
    PERFORMER "Steve Lee / Leo Leoni"
    INDEX 01 32:22:00
  TRACK 31 AUDIO
    TITLE "Congratulations from Firebird"
    PERFORMER "Bill Steer"
    INDEX 01 32:38:19
  TRACK 32 AUDIO
    TITLE "Congratulations from Engel"
    PERFORMER "Niclas Engelin"
    INDEX 01 32:46:57
  TRACK 33 AUDIO
    TITLE "Congratulations from Napalm Death"
    PERFORMER "Shane Embury"
    INDEX 01 32:57:74
  TRACK 34 AUDIO
    TITLE "Congratulations from Fair Warning"
    PERFORMER "Ule W. Ritgen"
    INDEX 01 33:08:58
  TRACK 35 AUDIO
    TITLE "Congratulations from Richie Sambora"
    PERFORMER "Richie Sambora"
    INDEX 01 33:25:19
  TRACK 36 AUDIO
    TITLE "Congratulations from Europe"
    PERFORMER "John Norum / Joey Tempest"
    INDEX 01 33:36:28


  TRACK 37 AUDIO
    TITLE "Classic rock: POINT OF KNOW RETURN"
    PERFORMER "KANSAS : Point of Know Return (Digitally remastered)"
    INDEX 01 53:21:70



SEO [PR] おまとめローン 冷え性対策 坂本龍馬 動画掲示板 レンタルサーバー SEO