[ オンエアリストに戻る ]
TITLE "Heavy Metal Syndicate #985"
FILE "2009-12-27.mp3" WAVE
  TRACK 01 AUDIO
    TITLE "GET INTO THE SPIRIT"
    PERFORMER "HALFORD : Halford 3 - Winter Songs"
    INDEX 01 00:00:00

  TRACK 02 AUDIO
    TITLE "CHRISTMAS FOR EVERYONE"
    PERFORMER "HALFORD : Halford 3 - Winter Songs"
    INDEX 01 11:11:21

  TRACK 03 AUDIO
    TITLE "ARMY OF SLAVES"
    PERFORMER "ROYAL HUNT : X"
    INDEX 01 15:58:57

  TRACK 04 AUDIO
    TITLE "ATLANTIS"
    PERFORMER "MORNING AFTER : You Can't Hurt Steel"
    INDEX 01 23:04:11

  TRACK 05 AUDIO
    TITLE "CAROLINE"
    PERFORMER "POODLES : Clash of the Elements"
    INDEX 01 31:00:67

  TRACK 06 AUDIO
    TITLE "Classic rock: I'M INTO SOMETHING GOOD"
    PERFORMER "HERMAN'S HERMITS : Herman's Hermits"
    INDEX 01 51:40:34


SEO [PR] おまとめローン 冷え性対策 坂本龍馬 動画掲示板 レンタルサーバー SEO