[ オンエアリストに戻る ]
TITLE "Heavy Metal Syndicate #984"
FILE "2009-12-20.mp3" WAVE
  TRACK 01 AUDIO
    TITLE "SOMEBODY SAVE ME (Live 2005)"
    PERFORMER "CINDERELLA : Live at the Mohegan Sun"
    INDEX 01 00:00:00

  TRACK 02 AUDIO
    TITLE "SLINGSHOT"
    PERFORMER "JOE PERRY : Have Guitar, Will Travel"
    INDEX 01 13:10:66

  TRACK 03 AUDIO
    TITLE "BLEED ME DRY"
    PERFORMER "MURDER OF MY SWEET : Divanity"
    INDEX 01 20:08:43

  TRACK 04 AUDIO
    TITLE "GLITTER AND BOMBS"
    PERFORMER "MORNING AFTER : You Can't Hurt Steel"
    INDEX 01 25:09:58

  TRACK 05 AUDIO
    TITLE "LUCY"
    PERFORMER "SKILLET : Awake"
    INDEX 01 32:07:33

  TRACK 06 AUDIO
    TITLE "Introduction: THESE BOOTS ARE MADE FOR WALKIN'"
    PERFORMER "NANCY SINATRA : Boots"
    INDEX 01 46:15:63

  TRACK 07 AUDIO
    TITLE "Classic rock: THESE BOOTS"
    PERFORMER "MEGADETH : Killing Is My Business... and Business Is Good! (1988 reissue)"
    INDEX 01 52:36:46


SEO [PR] おまとめローン 冷え性対策 坂本龍馬 動画掲示板 レンタルサーバー SEO