[ オンエアリストに戻る ]
TITLE "Heavy Metal Syndicate #983"
FILE "2009-12-13.mp3" WAVE
  TRACK 01 AUDIO
    TITLE "SEXY SANTA"
    PERFORMER "STEEL PANTHER : Sexy Santa (download single)"
    INDEX 01 00:00:00

  TRACK 02 AUDIO
    TITLE "MOTORVATIN' (Live 2009)"
    PERFORMER "HANOI ROCKS : Buried Alive (DVD)"
    INDEX 01 09:53:33

  TRACK 03 AUDIO
    TITLE "DO YA WANNA TASTE IT"
    PERFORMER "WIG WAM : Non Stop Rock'n'Roll"
    INDEX 01 14:17:59

  TRACK 04 AUDIO
    TITLE "SOMETIME AFTER DARK"
    PERFORMER "MORNING AFTER : You Can't Hurt Steel"
    INDEX 01 19:59:24

  TRACK 05 AUDIO
    TITLE "FOLLOW THE DREAMER"
    PERFORMER "MISSING TIDE : Follow the Dreamer"
    INDEX 01 26:47:00

  TRACK 06 AUDIO
    TITLE "HEARTKILLER"
    PERFORMER "HIM : Screamworks - Love in Theory and Practice"
    INDEX 01 33:27:25

  TRACK 07 AUDIO
    TITLE "Classic rock: BACK TO THE LIGHT"
    PERFORMER "BRIAN MAY : Back to the Light"
    INDEX 01 50:46:39


SEO [PR] おまとめローン 冷え性対策 坂本龍馬 動画掲示板 レンタルサーバー SEO