[ オンエアリストに戻る ]
TITLE "Heavy Metal Syndicate #982"
FILE "2009-12-06.mp3" WAVE
  TRACK 01 AUDIO
    TITLE "EAGLE FLY FREE"
    PERFORMER "HELLOWEEN : Unarmed - Best of 25th Anniversary"
    INDEX 01 00:00:00

  TRACK 02 AUDIO
    TITLE "FOX ON THE RUN"
    PERFORMER "ACE FREHLEY : Anomaly"
    INDEX 01 12:48:18

  TRACK 03 AUDIO
    TITLE "REVOLUTION"
    PERFORMER "JOE PERRY : Have Guitar, Will Travel"
    INDEX 01 16:14:73

  TRACK 04 AUDIO
    TITLE "BLOODKULT"
    PERFORMER "HEATHEN : The Evolution of Chaos"
    INDEX 01 21:49:62

  TRACK 05 AUDIO
    TITLE "UNIVERSE"
    PERFORMER "DUSHAN PETROSSI'S IRON MASK : Shadow of the Red Baron"
    INDEX 01 26:45:05

  TRACK 06 AUDIO
    TITLE "AWAKE AND ALIVE"
    PERFORMER "SKILLET : Awake"
    INDEX 01 33:31:72

  TRACK 07 AUDIO
    TITLE "Classic rock: ROCK CITY"
    PERFORMER "DAMN YANKEES : Damn Yankees"
    INDEX 01 48:59:73


SEO [PR] おまとめローン 冷え性対策 坂本龍馬 動画掲示板 レンタルサーバー SEO