[ オンエアリストに戻る ]
TITLE "Heavy Metal Syndicate #981"
FILE "2009-11-29.mp3" WAVE
  TRACK 01 AUDIO
    TITLE "WE'VE GOT A LONG WAY TO GO"
    PERFORMER "JOE PERRY : Have Guitar, Will Travel"
    INDEX 01 00:00:00

  TRACK 02 AUDIO
    TITLE "FUTURE WORLD"
    PERFORMER "HELLOWEEN : Unarmed - Best of 25th Anniversary"
    INDEX 01 11:02:17

  TRACK 03 AUDIO
    TITLE "HEARTBREAKER"
    PERFORMER "LAST AUTUMN'S DREAM : A Touch of Heaven"
    INDEX 01 17:00:30

  TRACK 04 AUDIO
    TITLE "DYING SEASON"
    PERFORMER "HEATHEN : The Evolution of Chaos"
    INDEX 01 23:38:46

  TRACK 05 AUDIO
    TITLE "DYING BREED"
    PERFORMER "FIVE FINGER DEATH PUNCH : War Is the Answer"
    INDEX 01 30:43:10

  TRACK 06 AUDIO
    TITLE "RAIN"
    PERFORMER "CREED : Full Circle"
    INDEX 01 35:57:52

  TRACK 07 AUDIO
    TITLE "Classic rock: SEE MY BABY JIVE"
    PERFORMER "WIZZARD : See My Baby Jive (single)"
    INDEX 01 51:14:07


SEO [PR] おまとめローン 冷え性対策 坂本龍馬 動画掲示板 レンタルサーバー SEO