[ オンエアリストに戻る ]
TITLE "Heavy Metal Syndicate #980"
FILE "2009-11-22.mp3" WAVE
  TRACK 01 AUDIO
    TITLE "DR. STEIN"
    PERFORMER "HELLOWEEN : Unarmed - Best of 25th Anniversary"
    INDEX 01 00:00:00

  TRACK 02 AUDIO
    TITLE "OUTER SPACE"
    PERFORMER "ACE FREHLEY : Anomaly"
    INDEX 01 10:34:39

  TRACK 03 AUDIO
    TITLE "DREAM ON"
    PERFORMER "JOE PERRY : Have Guitar, Will Travel"
    INDEX 01 16:44:06

  TRACK 04 AUDIO
    TITLE "HERO"
    PERFORMER "SKILLET : Awake"
    INDEX 01 24:06:59

  TRACK 05 AUDIO
    TITLE "BREAD OF SHAME"
    PERFORMER "CREED : Full Circle"
    INDEX 01 28:13:23

  TRACK 06 AUDIO
    TITLE "SEE MY BABY JIVE"
    PERFORMER "LAST AUTUMN'S DREAM : A Touch of Heaven"
    INDEX 01 35:33:09

  TRACK 07 AUDIO
    TITLE "Classic rock: HOCUS POCUS (U.S. single version)"
    PERFORMER "FOCUS : Hocus Pocus - The Best of Focus"
    INDEX 01 52:23:69


SEO [PR] おまとめローン 冷え性対策 坂本龍馬 動画掲示板 レンタルサーバー SEO