[ オンエアリストに戻る ]
TITLE "Heavy Metal Syndicate #979"
FILE "2009-11-15.mp3" WAVE
  TRACK 01 AUDIO
    TITLE "FREEDOM"
    PERFORMER "JOE PERRY : Have Guitar, Will Travel"
    INDEX 01 00:00:00

  TRACK 02 AUDIO
    TITLE "FOXY & FREE"
    PERFORMER "ACE FREHLEY : Anomaly"
    INDEX 01 09:48:32

  TRACK 03 AUDIO
    TITLE "PEACE OF MIND"
    PERFORMER "STRYPER : Murder by Pride (feat. Tom Scholz)"
    INDEX 01 15:17:25

  TRACK 04 AUDIO
    TITLE "STONE COLD KILLER"
    PERFORMER "WINGER : Karma"
    INDEX 01 21:13:21

  TRACK 05 AUDIO
    TITLE "HYPERDRIVE!"
    PERFORMER "DEVIN TOWNSEND PROJECT : Addicted"
    INDEX 01 24:50:70

  TRACK 06 AUDIO
    TITLE "MONSTER"
    PERFORMER "SKILLET : Awake"
    INDEX 01 31:50:13

  TRACK 07 AUDIO
    TITLE "Classic rock: STRIPPER"
    PERFORMER "ALCATRAZZ : Disturbing the Peace"
    INDEX 01 51:57:59


SEO [PR] おまとめローン 冷え性対策 坂本龍馬 動画掲示板 レンタルサーバー SEO