[ オンエアリストに戻る ]
TITLE "Heavy Metal Syndicate #978"
FILE "2009-11-08.mp3" WAVE
  TRACK 01 AUDIO
    TITLE "LIGHTNING AND THUNDER"
    PERFORMER "SOUL DOCTOR : Way Back to the Bone"
    INDEX 01 00:00:00

  TRACK 02 AUDIO
    TITLE "DEAL WITH THE DEVIL"
    PERFORMER "WINGER : Karma"
    INDEX 01 08:36:45

  TRACK 03 AUDIO
    TITLE "TONIGHT"
    PERFORMER "JOE LYNN TURNER :  Voices of Rock MMIX - High & Mighty"
    INDEX 01 13:54:20

  TRACK 04 AUDIO
    TITLE "THIS MOMENT"
    PERFORMER "AGNES PIHLAVA : Redemption"
    INDEX 01 21:31:01

  TRACK 05 AUDIO
    TITLE "BLACK VATICAN"
    PERFORMER "THROWDOWN : Deathless"
    INDEX 01 27:01:14

  TRACK 06 AUDIO
    TITLE "Classic rock: SUICIDE?"
    PERFORMER "BARCLAY JAMES HARVEST : Octoberon (Digitally remastered)"
    INDEX 01 47:05:10


SEO [PR] おまとめローン 冷え性対策 坂本龍馬 動画掲示板 レンタルサーバー SEO