[ オンエアリストに戻る ]
TITLE "Heavy Metal Syndicate #977"
FILE "2009-11-01.mp3" WAVE
  TRACK 01 AUDIO
    TITLE "TIMES OF YESTERDAY"
    PERFORMER "SOUL DOCTOR : Way Back to the Bone"
    INDEX 01 00:00:00

  TRACK 02 AUDIO
    TITLE "SUPERMAN TONIGHT"
    PERFORMER "BON JOVI : The Circle"
    INDEX 01 17:28:06

  TRACK 03 AUDIO
    TITLE "THORN IN MY SIDE"
    PERFORMER "BON JOVI : The Circle"
    INDEX 01 22:36:10

  TRACK 04 AUDIO
    TITLE "DANCING IN THE MOONLIGHT (Live 1977)"
    PERFORMER "THIN LIZZY : Still Dangerous - Live at the Tower Theatre Philadelphia 1977"
    INDEX 01 29:40:16

  TRACK 05 AUDIO
    TITLE "TOMORROW'S DAYLIGHT"
    PERFORMER "CARDIANT : Tomorrow's Daylight"
    INDEX 01 35:41:74

  TRACK 06 AUDIO
    TITLE "Classic rock: PARCHMAN FARM"
    PERFORMER "CACTUS : Cactus"
    INDEX 01 52:22:63


SEO [PR] おまとめローン 冷え性対策 坂本龍馬 動画掲示板 レンタルサーバー SEO