[ オンエアリストに戻る ]
TITLE "Heavy Metal Syndicate #976"
FILE "2009-10-25.mp3" WAVE
  TRACK 01 AUDIO
    TITLE "WHEN WE WERE BEAUTIFUL"
    PERFORMER "BON JOVI : The Circle"
    INDEX 01 00:00:00

  TRACK 02 AUDIO
    TITLE "UNIT 731"
    PERFORMER "SLAYER : World Painted Blood"
    INDEX 01 13:35:02

  TRACK 03 AUDIO
    TITLE "SNUFF"
    PERFORMER "SLAYER : World Painted Blood"
    INDEX 01 16:14:60

  TRACK 04 AUDIO
    TITLE "CAN'T STAND LOSING"
    PERFORMER "SOUL DOCTOR : Way Back to the Bone"
    INDEX 01 22:49:71

  TRACK 05 AUDIO
    TITLE "WOLF AND THE MOON"
    PERFORMER "LEVERAGE : Circus Colossus"
    INDEX 01 27:47:11

  TRACK 06 AUDIO
    TITLE "WILL YOU LOVE ME TOMORROW (Live 1979)"
    PERFORMER "RAINBOW : Anthology 1975-1984"
    INDEX 01 35:53:52

  TRACK 07 AUDIO
    TITLE "Classic rock: BREAK ON THROUGH (TO THE OTHER SIDE)"
    PERFORMER "DOORS : The Doors (Digitally remastered)"
    INDEX 01 52:41:55


SEO [PR] おまとめローン 冷え性対策 坂本龍馬 動画掲示板 レンタルサーバー SEO