[ オンエアリストに戻る ]
TITLE "Heavy Metal Syndicate #975"
FILE "2009-10-18.mp3" WAVE
  TRACK 01 AUDIO
    TITLE "WORLD PAINTED BLOOD"
    PERFORMER "SLAYER : World Painted Blood"
    INDEX 01 00:00:00

  TRACK 02 AUDIO
    TITLE "SICK"
    PERFORMER "DUFF McKAGAN'S LOADED : Sick"
    INDEX 01 13:32:47

  TRACK 03 AUDIO
    TITLE "BANGIN'"
    PERFORMER "HOUSE OF LORDS : Cartesian Dreams"
    INDEX 01 17:05:70

  TRACK 04 AUDIO
    TITLE "MARTYR OF THE FREE WORD"
    PERFORMER "EPICA : Design Your Universe"
    INDEX 01 22:06:58

  TRACK 05 AUDIO
    TITLE "OVERCOME"
    PERFORMER "CREED : Full Circle"
    INDEX 01 27:48:31

  TRACK 06 AUDIO
    TITLE "THE SCYTHE"
    PERFORMER "THROWDOWN : Deathless"
    INDEX 01 33:32:67

  TRACK 07 AUDIO
    TITLE "Classic rock: SUSPIRIA"
    PERFORMER "GOBLIN : Suspiria (Soundtrack)"
    INDEX 01 50:26:07


SEO [PR] おまとめローン 冷え性対策 坂本龍馬 動画掲示板 レンタルサーバー SEO