[ オンエアリストに戻る ]
TITLE "Heavy Metal Syndicate #974"
FILE "2009-10-11.mp3" WAVE
  TRACK 01 AUDIO
    TITLE "ROOM #9"
    PERFORMER "ANVIL : This Is Thirteen"
    INDEX 01 00:00:00

  TRACK 02 AUDIO
    TITLE "DIRTY MIND"
    PERFORMER "DANGER DANGER : Revolve"
    INDEX 01 14:17:44

  TRACK 03 AUDIO
    TITLE "BORN TO BE YOUR BABY"
    PERFORMER "HOUSE OF LORDS : Cartesian Dreams"
    INDEX 01 19:28:13

  TRACK 04 AUDIO
    TITLE "SINCE I'VE BEEN LOVIN' YOU (Live 2008)"
    PERFORMER "EUROPE : Almost Unplugged"
    INDEX 01 27:37:03

  TRACK 05 AUDIO
    TITLE "DON'T LET ME BE MISUNDERSTOOD"
    PERFORMER "SAVAGE CIRCUS : Of Doom and Death"
    INDEX 01 37:59:01

  TRACK 06 AUDIO
    TITLE "Classic rock: ONE OF THESE DAYS"
    PERFORMER "PINK FLOYD : Meddle (Digitally remastered)"
    INDEX 01 49:30:49


SEO [PR] おまとめローン 冷え性対策 坂本龍馬 動画掲示板 レンタルサーバー SEO