[ オンエアリストに戻る ]
TITLE "Heavy Metal Syndicate #973"
FILE "2009-10-04.mp3" WAVE
  TRACK 01 AUDIO
    TITLE "GAME OVER"
    PERFORMER "ANVIL : This Is Thirteen"
    INDEX 01 00:00:00

  TRACK 02 AUDIO
    TITLE "21ST CENTURY MAN"
    PERFORMER "LYNCH MOB : Smoke and Mirrors"
    INDEX 01 12:23:59

  TRACK 03 AUDIO
    TITLE "ROCK THE NIGHT (Live 2008)"
    PERFORMER "EUROPE : Almost Unplugged"
    INDEX 01 19:02:06

  TRACK 04 AUDIO
    TITLE "OF DOOM AND DEATH"
    PERFORMER "SAVAGE CIRCUS : Of Doom and Death"
    INDEX 01 28:03:44

  TRACK 05 AUDIO
    TITLE "LOSING YOU"
    PERFORMER "DEAD BY APRIL : Dead by April"
    INDEX 01 36:32:40

  TRACK 06 AUDIO
    TITLE "Classic rock: (Medley) JUST A GIGOLO / I AIN'T GOT NOBODY"
    PERFORMER "DAVID LEE ROTH : Crazy from the Heat (EP)"
    INDEX 01 51:33:54


SEO [PR] おまとめローン 冷え性対策 坂本龍馬 動画掲示板 レンタルサーバー SEO