[ オンエアリストに戻る ]
TITLE "Heavy Metal Syndicate #972"
FILE "2009-09-27.mp3" WAVE
  TRACK 01 AUDIO
    TITLE "DARK INSANITY"
    PERFORMER "ARCH ENEMY : The Root of All Evil"
    INDEX 01 00:00:00

  TRACK 02 AUDIO
    TITLE "GHOST OF LOVE"
    PERFORMER "DANGER DANGER : Revolve"
    INDEX 01 15:15:10

  TRACK 03 AUDIO
    TITLE "THE BEAST"
    PERFORMER "EUROPE : Last Look at Eden"
    INDEX 01 21:52:66

  TRACK 04 AUDIO
    TITLE "BLACK GIVES WAY TO BLUE"
    PERFORMER "ALICE IN CHAINS : Black Gives Way to Blue"
    INDEX 01 26:19:44

  TRACK 05 AUDIO
    TITLE "THE RISE OF DENIAL"
    PERFORMER "PARADISE LOST : Faith Divides Us - Death Unites Us"
    INDEX 01 32:10:31

  TRACK 06 AUDIO
    TITLE "Classic rock: PLEASE DON'T LEAVE ME"
    PERFORMER "PRETTY MAIDS : Offside"
    INDEX 01 52:29:70


SEO [PR] おまとめローン 冷え性対策 坂本龍馬 動画掲示板 レンタルサーバー SEO