[ オンエアリストに戻る ]
TITLE "Heavy Metal Syndicate #971"
FILE "2009-09-20.mp3" WAVE
  TRACK 01 AUDIO
    TITLE "POEZD PO ROSSII (Live 2008)"
    PERFORMER "U.D.O. : Infected (EP)"
    INDEX 01 00:00:00

  TRACK 02 AUDIO
    TITLE "WE WILL REMAIN"
    PERFORMER "LYNCH MOB : Smoke and Mirrors"
    INDEX 01 15:10:50

  TRACK 03 AUDIO
    TITLE "DO YOU LIKE IT LIKE THAT (Live 2009)"
    PERFORMER "PINK CREAM 69 : Live in Karlsruhe"
    INDEX 01 21:12:39

  TRACK 04 AUDIO
    TITLE "DREAMER (Live 2008)"
    PERFORMER "EUROPE : Almost Unplugged"
    INDEX 01 27:10:02

  TRACK 05 AUDIO
    TITLE "ANGELS OF CLARITY"
    PERFORMER "DEAD BY APRIL : Dead by April"
    INDEX 01 34:54:16

  TRACK 06 AUDIO
    TITLE "Classic rock: PEACE OF MIND"
    PERFORMER "BOSTON : Boston (Digitally remastered)"
    INDEX 01 51:20:42


SEO [PR] おまとめローン 冷え性対策 坂本龍馬 動画掲示板 レンタルサーバー SEO