[ オンエアリストに戻る ]
TITLE "Heavy Metal Syndicate #970"
FILE "2009-09-13.mp3" WAVE
  TRACK 01 AUDIO
    TITLE "DADDY, BROTHER, LOVER, LITTLE BOY (THE ELECTRIC DRILL SONG) (Live 2009)"
    PERFORMER "MR. BIG : Back to Budokan"
    INDEX 01 00:00:00

  TRACK 02 AUDIO
    TITLE "NEW LOVE IN TOWN"
    PERFORMER "EUROPE : Last Look at Eden"
    INDEX 01 08:11:61

  TRACK 03 AUDIO
    TITLE "THE LAST AMAZING GRAYS"
    PERFORMER "SONATA ARCTICA : The Days of Grays"
    INDEX 01 11:56:00

  TRACK 04 AUDIO
    TITLE "WHAT I NEED"
    PERFORMER "OUTLOUD : Outloud"
    INDEX 01 18:25:16

  TRACK 05 AUDIO
    TITLE "THE IMMORTAL"
    PERFORMER "ARCH ENEMY : The Root of All Evil"
    INDEX 01 23:20:02

  TRACK 06 AUDIO
    TITLE "TRAPPED"
    PERFORMER "DEAD BY APRIL : Dead by April"
    INDEX 01 29:33:05

  TRACK 07 AUDIO
    TITLE "CHECK MY BRAIN"
    PERFORMER "ALICE IN CHAINS : Black Gives Way to Blue"
    INDEX 01 33:18:42

  TRACK 08 AUDIO
    TITLE "Classic rock: AMERICAN GIRLS"
    PERFORMER "TRIUMPH : Just a Game (Digitally remastered)"
    INDEX 01 51:22:06


SEO [PR] おまとめローン 冷え性対策 坂本龍馬 動画掲示板 レンタルサーバー SEO